TorrentDownloadz.com - The Largest Bittorent System Advanced Search
TorrentDownloadz.com
LoginRegister Browse TorrentsSearch CloudUpload a torrentStatisticsInvite a FriendFAQ 
TorrentDownloadz.com

 




Browse Movies torrents

Something Borrowed (2011) DVDRip Xvid-MAX Torrent Download


Download Something Borrowed (2011) DVDRip Xvid-MAX torrent file from TorrentDownloadz.com torrents database full download crack serial keygen

Direct download: Something Borrowed (2011) DVDRip Xvid-MAX Something Borrowed (2011) DVDRip Xvid-MAX With Crack+Keygen - Up to 10X Faster!
Torrent Download: Download Torrent: Something Borrowed (2011) DVDRip Xvid-MAX Something Borrowed (2011) DVDRip Xvid-MAX Torrent Download
Please share:
Info hash: d3d90e4e3adbb5817565a509d6c9ae7ab5568359
Tracker: http://tracker.prq.to/announce
Category: Categories > Movies > Comedy
Seeds: 1  
Leechers: 0
Health: Torrent health: 6
Total Size: 865.99 MB
Number of files: 4   View torrent files >
Downloaded: 3542
Private: no
Torrent added: 2011-02-26 02:14:15
More Torrents: Related to Something Borrowed (2011) DVDRip Xvid-MAX



Torrent Description

Something Borrowed (2011) DVDRip Xvid-MAX

Format : AVI
Format/Info : Audio Video Interleave
Format profile : OpenDML
Duration : 2h 13mn
Overall bit rate : 1 206 Kbps
Writing application : VirtualDubMod 1.5.10.2 (build 2542/release)
Writing library : VirtualDubMod build 2542/release
Original source form : MAX TORRENTZ
Copyright : SIGISMUNT

Video
ID : 0
Format : MPEG-4 Visual
Format profile : AdvancedSimple@L5
Format settings, BVOP : Yes
Format settings, QPel : No
Format settings, GMC : No warppoints
Format settings, Matrix : Default (H.263)
Muxing mode : Packed bitstream
Codec ID : XVID
Codec ID/Hint : XviD
Duration : 2h 13mn
Bit rate : 1 010 Kbps
Width : 640 pixels
Height : 272 pixels
Display aspect ratio : 2.35:1
Frame rate : 23.976 fps
Resolution : 24 bits
Colorimetry : 4:2:0
Scan type : Progressive
Bits/(Pixel*Frame) : 0.242
Stream size : 962 MiB (84%)
Writing library : XviD 57

Audio
ID : 1
Format : MPEG Audio
Format version : Version 1
Format profile : Layer 3
Codec ID : 55
Codec ID/Hint : MP3
Duration : 2h 13mn
Bit rate mode : Constant
Bit rate : 192 Kbps
Channel(s) : 2 channels
Sampling rate : 48.0 KHz
Resolution : 16 bits
Stream size : 183 MiB (16%)
Alignment : Aligned on interleaves
Interleave, duration : 712 ms (17.08 video frames)
Interleave, preload duration : 216 ms
Writing library : LAME3.98.2

Source: DVD (perfect a/v/sync quality+filtered audio with additional 400% volume , sample is included)

Something Borrowed (2011) DVDRip Xvid-MAX Torrent Free Download

How To Get Your Maxspeed (uTorrent)

Torrent Client - Preferences - Bandwidth - Number of connections - Set aprox. 500 for each
Torrent Client - Preferences - BiTorrent - Protocol Encryption - Forced
Bandwidth Allocation - High (Set download/upload limit - Unlimited)
Stop Other Active Torrents - Start downloading and wait for connections.
Enjoy and Seed for at least 1:1 ratio. Don\'t forget to say thanks/leave reviews.
Before downloading you should check/google search sample \"release name\"\"sample\".
Greets to all actual/future p2p/scene QUALITY groups and affiliate websites.
Don\'t trust IMDb robot or bad ratings,always watch some trailers first.
Ignore stupid comments/fake/mislabeled/no-DVDrips/CAM/TS/RAR uploads.
Please spread this release/torrent to your friends/forums/etc.
If you need translation subs visit some subtitles sites.
Report if you see online streaming or other spam links.
Recommended movie player VLC PLAYER.


Comments (please add your comment)

No comments



TorrentDownloadz.com
Partner Sites
TorrentDownloadz.com

Home - Browse Torrents - Upload Torrent - Copyright Compliance - Statistics - FAQ - Login