TorrentDownloadz.com - The Largest Bittorent System Advanced Search
TorrentDownloadz.com
LoginRegister Browse TorrentsSearch CloudUpload a torrentStatisticsInvite a FriendFAQ 
TorrentDownloadz.com

 




Browse Movies torrents

Cars 2 (2011) DVDRip XviD-MAX Torrent Download


Download Cars 2 (2011) DVDRip XviD-MAX torrent file from TorrentDownloadz.com torrents database full download crack serial keygen

Full Download: Cars 2 (2011) DVDRip XviD-MAX Cars 2 (2011) DVDRip XviD-MAX Full Download
Torrent Download: Download Torrent: Cars 2 (2011) DVDRip XviD-MAX Cars 2 (2011) DVDRip XviD-MAX Torrent Download
Please share:
Info hash: 23612a9725cb17ba39abd80f59e75d908909f183
Tracker: http://tracker.publicbt.com/announce
Category: Categories > Movies > Adventure
Seeds: 2742  
Leechers: 4271
Health: Torrent health: 10
Total Size: 977.55 MB
Number of files: 1   View torrent files >
Downloaded: 23352
Private: no
Torrent added: 2010-12-13 18:11:42
More Torrents: Related to Cars 2 (2011) DVDRip XviD-MAX



Torrent Description

Cars 2 (2011) DVDRip XviD-MAX

Format : AVI
Format/Info : Audio Video Interleave
Format profile : OpenDML
File size : 977.55 MB
Duration : 2h 28mn
Overall bit rate : 1 381 Kbps
Writing application : AVI-Mux GUI 1.17.8.3, Feb 16 201019:42:50

Video
ID : 0
Format : MPEG-4 Visual
Format profile : AdvancedSimple@L5
Format settings, BVOP : Yes
Format settings, QPel : No
Format settings, GMC : No warppoints
Format settings, Matrix : Default (H.263)
Muxing mode : Packed bitstream
Codec ID : XVID
Codec ID/Hint : XviD
Duration : 2h 28mn
Bit rate : 1 185 Kbps
Width : 640 pixels
Height : 272 pixels
Display aspect ratio : 2.35:1
Frame rate : 23.976 fps
Resolution : 24 bits
Colorimetry : 4:2:0
Scan type : Progressive
Bits/(Pixel*Frame) : 0.284
Stream size : 1.23 GiB (86%)
Writing library : XviD 57

Audio
ID : 1
Format : MPEG Audio
Format version : Version 1
Format profile : Layer 3
Codec ID : 55
Codec ID/Hint : MP3
Duration : 2h 28mn
Bit rate mode : Constant
Bit rate : 192 Kbps
Channel(s) : 2 channels
Sampling rate : 48.0 KHz
Resolution : 16 bits
Stream size : 203 MiB (14%)
Alignment : Aligned on interleaves
Interleave, duration : 628 ms (15.07 video frames)
Interleave, preload duration : 216 ms
Title : inception
Writing library : LAME3.98.2

Sources: Original DVD+MP3 audio (perfect sync with additional 100% volume) sample

included,enjoy

http://www.imdb.com/title/tt1375666/


How To Get Your Maxspeed (uTorrent)

Torrent Client - Preferences - Bandwidth - Number of connections - Set aprox. 500 for each
Torrent Client - Preferences - BiTorrent - Protocol Encryption - Forced
Bandwidth Allocation - High (Set download/upload limit - Unlimited)
Stop Other Active Torrents - Start downloading and wait for connections.
Enjoy and Seed for at least 1:1 ratio. Don\'t forget to say thanks/leave reviews.
Greets to all actual/future p2p/scene QUALITY groups and affiliate websites.
Don\'t trust IMDb robot or bad ratings,always watch some trailers first.
Ignore stupid comments/fake/mislabeled/no-DVDrips/CAM/TS/RAR uploads.
Please spread this release/torrent to your friends/forums/etc.
If you need translation subs visit some subtitles sites.
Report if you see online streaming or other spam links.
Recommended movie player VLC PLAYER


Comments (please add your comment)

No comments



TorrentDownloadz.com
Partner Sites
TorrentDownloadz.com

Home - Browse Torrents - Upload Torrent - Copyright Compliance - Statistics - FAQ - Login