TorrentDownloadz.com - The Largest Bittorent System Advanced Search
TorrentDownloadz.com
LoginRegister Browse TorrentsSearch CloudUpload a torrentStatisticsInvite a FriendFAQ 
TorrentDownloadz.com

 




Browse Movies torrents

Lovely Molly (2011) DVDRip XviD Torrent Download


Download Lovely Molly (2011) DVDRip XviD torrent file from TorrentDownloadz.com torrents database full download crack serial keygen

Direct download: Lovely Molly (2011) DVDRip XviD Lovely Molly (2011) DVDRip XviD With Crack+Keygen - Up to 10X Faster!
Torrent Download: Download Torrent: Lovely Molly (2011) DVDRip XviD Lovely Molly (2011) DVDRip XviD Torrent Download
Info hash: cad88bc0a017844b4cc4e0e462688cef75f436a0
Tracker: http://exodus.desync.com:6969/announce
Category: Categories > Movies > Horror
Seeds: 1  
Leechers: 0
Health: Torrent health: 6
Total Size: 878.86 MB
Number of files: 2   View torrent files >
Downloaded: 183
Private: no
Torrent added: 2012-05-23 01:50:01
More Torrents: Related to Lovely Molly (2011) DVDRip XviD



Torrent Description

Lovely Molly (2011) DVDRip XviD

Format : AVI

Format/Info : Audio Video Interleave

File size : 850 MB

Duration : 2h 7mn

Overall bit rate : 874 Kbps

Writing application : VirtualDubMod 1.5.10.2 (build 2542/release)

Writing library : VirtualDubMod build 2542/release



Video:



ID : 0

Format : MPEG-4 Visual

Format profile : Advanced Simple@L5

Format settings, BVOP : 1

Format settings, QPel : No

Format settings, GMC : No warppoints

Format settings, Matrix : Default (H.263)

Muxing mode : Packed bitstream

Codec ID : XVID

Codec ID/Hint : XviD

Duration : 2h 7mn

Bit rate : 737 Kbps

Width : 704 pixels

Height : 296 pixels

Display aspect ratio : 2.40:1

Frame rate : 23.976 fps

Color space : YUV

Chroma subsampling : 4:2:0

Bit depth : 8 bits

Scan type : Progressive

Compression mode : Lossy

Bits/(Pixel*Frame) : 0.147

Stream size : 700 MiB (84%)

Writing library : XviD 62



Audio:



ID : 1

Format : MPEG Audio

Format version : Version 1

Format profile : Layer 3

Mode : Joint stereo

Mode extension : MS Stereo

Codec ID : 55

Codec ID/Hint : MP3

Duration : 2h 7mn

Bit rate mode : Constant

Bit rate : 128 Kbps

Channel(s) : 2 channels

Sampling rate : 44.1 KHz

Compression mode : Lossy

Stream size : 82.6 MiB (15%)

Alignment : Split accross interleaves

Interleave, duration : 42 ms (1.00 video frame)

Interleave, preload duration : 500 ms

Writing library : LAME3.98.2


Comments (please add your comment)

No comments


TorrentDownloadz.com
Recent Search Tags
TorrentDownloadz.com

Gang Bang      Nutorent      loli      Harry.Potter.and.the.Deathly.H      Captain America The First Aven      United States of Tara S03E10 H      VA-Clubland X-treme Hardcore M      Animal Crossing New Leaf      sas enterprise guide 4.2      windows ultimate 7      2012 2009 DvDRiP Digital Ecsta      Cobra11      girls      xls regenerator      save2pc.Ultimate.v4.24.Build.1      Thor The Dark World (2013) Web      adobe flash player 10      Warrior.2011.REPACK.720p.BluRa      Pirates of the Caribbean On St      Big Mommas Like Father Like So      Star Trek Into Darkness (2013)      Dinner for Schmucks 2010 DVDRi      ki-      兽交电影迅雷下载 Torre      Harry Potter And The Deathly H      Transformers 3 Dark of the Moo      activation code photoimpact x3      Prince of Persia The Sands of       The Last Airbender 2010 DvDrip      National.Geographic.Mystery.Fi      The Twilight Saga Breaking Daw      radmin      Anabolic Assman 18      2012      olaf h      destinator      The Mortal Instruments City of      borgen      Transformers Dark of the Moon       The Sorcerers Apprentice 2010       18yo_sashahall-mp4FullHigh-1.m      fact.or.faked.paranormal.files      Abraham Lincoln Vampire Hunter      SILVIA      predators      h33t      Percy Jackson Sea of Monsters       er s14      Microsoft Office 2007      The Hunger Games Catching Fire     


TorrentDownloadz.com
Partner Sites
TorrentDownloadz.com

Home - Browse Torrents - Upload Torrent - Copyright Compliance - Statistics - FAQ - Login